Skip to main content

Monks of Doom Live at Bottom Of The Hill on 2003-10-24




Disc 1 (47:42.60)
01. VS Montana
02. Cherry Blossom Baptism
03. In Anticipation of the Pope
04. Riverbed
05. Facts About Spiders
06. Going South
07. Calvary
08. Traveler
09. Unexplained Murders
10. The Vivian Girls

Disc 2 (48:19.12)
11. The Better Angels Of Our Nature
12. instrumental
13. The Insect God
14. Hieroglyphic
15. Calvary Cross
16. Let's Split
17. Ukrainian Technological Faith Dance
18. Lucifer Sam
19. Tanguedia (For Astor Piazzolla)


Collection MonksofDoom
Band/Artist Monks of Doom
Venue Bottom Of The Hill
Location San Francisco CA USA

Source Neumann KM-140 > Beyer MV100 > Sony SBM-1 > Sony D8
Lineage ?
Taped by Mr Friendly
Transferred by ?, morst

Notes

source: CD's

SHNTOOL:
length expanded size cdr WAVE problems fmt ratio filename
4:11.13 44307020 B --- -- ---xx MonksOfDoom2003-10-24d1t01.flac
7:01.20 74311484 B --- -- ---xx MonksOfDoom2003-10-24d1t02.flac
4:01.57 42646508 B --- -- ---xx MonksOfDoom2003-10-24d1t03.flac
3:26.30 36409004 B --- -- ---xx MonksOfDoom2003-10-24d1t04.flac
3:41.03 38991500 B --- -- ---xx MonksOfDoom2003-10-24d1t05.flac
6:42.46 71021036 B --- -- ---xx MonksOfDoom2003-10-24d1t06.flac
5:49.34 61643612 B --- -- ---xx MonksOfDoom2003-10-24d1t07.flac
6:01.71 63847436 B --- -- ---xx MonksOfDoom2003-10-24d1t08.flac
4:15.32 45057308 B --- -- ---xx MonksOfDoom2003-10-24d1t09.flac
2:31.54 26763452 B --- -- ---xx MonksOfDoom2003-10-24d1t10.flac
4:30.11 47653916 B --- -- ---xx MonksOfDoom2003-10-24d2t01.flac
4:35.74 48684092 B --- -- ---xx MonksOfDoom2003-10-24d2t02.flac
7:22.12 77997068 B --- -- ---xx MonksOfDoom2003-10-24d2t03.flac
6:48.16 72008876 B --- -- ---xx MonksOfDoom2003-10-24d2t04.flac
9:09.58 96980060 B --- -- ---xx MonksOfDoom2003-10-24d2t05.flac
1:28.29 15591452 B --- -- ---xx MonksOfDoom2003-10-24d2t06.flac
5:43.73 60676940 B --- -- ---xx MonksOfDoom2003-10-24d2t07.flac
5:53.46 62377436 B --- -- ---xx MonksOfDoom2003-10-24d2t08.flac
2:46.68 29442380 B --- -- ---xx MonksOfDoom2003-10-24d2t09.flac
96:01.72 1016410580 B 0.5820 (19 files)

Reviews

Reviewer: mr_friendly - - August 2, 2011
Subject: I recorded this one
Source was Neumann KM-140 > Beyer MV100 > Sony SBM-1 > Sony D8. I actually ran a SBD/AUD mix for Joanthan Segel's opening set, but the Monks soundman insisted I unplug from the board even though Victor told me it was OK. Whatever, still came out great.
Reviewer: mick dillingham - - April 15, 2010
Subject: oh yes indeed
have to agree with you totally on this one Morst...my god what a performance and what a recording...absolute dynamite....there's something beyond understanding when these four good fellows get together and make monks music...majestic and passionate beyond all reason they are in my book one of the greatest bands to ever walk the planet
Reviewer: morst - - April 15, 2010
Subject: Wow, once in a while ya get a doozy from who-knows-where!?
Mick D'ham! Are you hearing what I'm hearing? Zoinks!! Whoever recorded this baby nailed a nice one. Pretty much has to be a soundboard recording. I love it at the end of d2t02 how the band just hammers it down, and Immy says "Wow."

This is a great sounding recording and is just the thing to soothe me over the fact that I can't make it to CA for the upcoming MoD gigs!!

Ok, single malt scotches in brandy snifters and waters for everyone!!!
DOWNLOAD OPTIONS
In Collection
Monks of Doom
In Collection
Live Music Archive
Uploaded by
morst
on 5/24/2009
Views
787
Favorites
1
Reviews
3
PEOPLE ALSO FOUND
Monks of Doom
by Monks of Doom
1,373
1
0
Source: SBD?
Monks of Doom
by Monks of Doom
1,279
1
0
Source: AKG C522MS ("The Pickle Mic") > Grace Lunatec V3 (mic preamp & A>D converter) + Soundcraft 800B SBD > Edirol R44 > WAVs @48kHz/24bit
Monks of Doom
by Monks of Doom
7,353
2
3
( 3 reviews )
Source: AUD > MD
Monks of Doom
by Monks of Doom
787
1
3
( 3 reviews )
Source: Neumann KM-140 > Beyer MV100 > Sony SBM-1 > Sony D8
Monks of Doom
by Monks of Doom
183
1
0
Source: DPA 4061 mics > Sony PCM-D50 > WAV @48/24
Monks of Doom
by Monks of Doom
559
1
0
Source: DPA 4061 mics > Sony PCM-D50 > WAV @48/24
Monks of Doom
by Monks of Doom
2,285
1
0
Source: Stereo mic > Sony D3 > MCAS
Monks of Doom
by Monks of Doom
2,825
1
1
( 1 reviews )
Source: ECM 929> D6> M EQ 230 > SV-3700 > HHB 830 30'Stage Center
Monks of Doom
by Monks of Doom
22,160
1
3
( 3 reviews )
Source: Realistic 33-1063 omni mic > Marantz PMD430 cassette deck w/ Dolby B NR
Monks of Doom
by Monks of Doom
2,833
1
2
( 2 reviews )
Source: SBD?